Шпионы по соседству / Keeping Up with the Joneses (2016) WEB-DLRip | iPad

131 55 Фильмы торрент 0 155 Djalex80 05.01.2017
Шпионы по соседству / Keeping Up with the Joneses (2016) WEB-DLRip | iPad
♦ Страна: США
♦ Производство: Fox 2000 Pictures, MacDonald/Parkes Productions
♦ Год выпуска: 2016
♦ Жанр: Боевик, комедия
♦ Режиссер: Грег Моттола
♦ В ролях: Зак Галифианакис, Айла Фишер, Джон Хэмм, Галь Гадот, Пэттон Освальт, Минг Жао, Мэтт Уолш, Мэрибет Монро, Майкл Лью, Кевин Данн

♦ Перевод: Дублированный [iTunes]
♦ Продолжительность: 01:45:58
♦ Субтитры: Русские форсированные, Английские форсированные, Русские, Английские, Украинские

Описание фильма:
◈ Супружеская пара из пригорода оказывается втянутой в международный шпионский заговор, когда обнаруживает, что их, казалось бы, идеальные новые соседи являются правительственными агентами.



iTunes Meta Tags / MediaInfo / x264 лог
Sort Name: Keeping Up With the Joneses
XID: Apple:vendor_id:2016-681503
contentID: 1160606899
Copyright: © 2016 Twentieth Century Fox Film Corporation. All rights reserved.
Screenwriters: Майкл ЛеСьер
Producers: Лори МакДональд, Уолтер Ф. Паркс, Тимоти М. Борн
Director: Грег Моттола
Cast: Зак Галифианакис, Айла Фишер, Джон Хэмм, Галь Гадот, Пэттон Освальт, Минг Жао, Мэтт Уолш, Мэрибет Монро, Майкл Лью, Кевин Данн, Даниил Эльдаров, Елена Шульман, Илья Исаев, Татьяна Шитова, Константин Карасик
Studio: 20th Century Fox
Rating: 4
Long Deion: Супружеская пара из пригорода оказывается втянутой в международный шпионский заговор, когда обнаруживает, что их, казалось бы, идеальные новые соседи являются правительственными агентами.
Deion: Супружеская пара из пригорода оказывается втянутой в международный шпионский заговор, когда обнаруживает, что их, казалось бы, идеальные новые соседи являются правительственными агентами.
Release Date: 2016-10-19T08:00:00Z
Genre: Comedy
Artist: Greg Mottola
Name: Keeping Up With the Joneses
General
Complete name : /Users/imac/HandBrake/Dvadtsat.vosem.panfilovtsev.(SD).(pk).m4v
Format : MPEG-4
Codec ID : M4V
File size : 1.97 GiB
Duration : 2h 0mn
Overall bit rate mode : Variable
Overall bit rate : 2 334 Kbps
Movie name : 28 панфиловцев
Performer : Ким Дружинин & Андрей Шальопа
Director : Ким Дружинин / Андрей Шальопа
Actor : Александр Устюгов / Яков Кучеревский / Азамат Нигманов / Олег Фёдоров / Алексей Морозов / Антон Кузнецов / Алексей Лонгин / Максим Белбородов / Дмитрий Мурашев / Виталий Коваленко
Screenplay by : Андрей Шальопа
Producer : Андрей Шальопа / Антон Юдинцев
Production studio : 28 панфиловцев, Libyan Palette Studios
Genre : Drama
ContentType : Short Film
Deion : Осенью 1941-го года немецкие части, стоявшие возле Волоколамска, отделяло от Москвы каких-нибудь два часа по шоссе. Однако, на этом шоссе стояла 316-я стрелковая дивизия под командованием генерала И. В. Панфилова. Этот военачальник обладал настолько высоким авторитетом среди личного состава, что бойцы дивизии сами называли себя панфиловцами. А дивизию - панфиловской.
Recorded date : UTC 2016-12-16 08:00:00
Encoded date : UTC 2016-12-27 11:13:48
Tagged date : UTC 2016-12-27 11:14:45
Copyright : © 2016 Студия "28 панфиловцев"
Cover : Yes
Rating : None
Title/Sort : 28 панфиловцев
LongDeion : Осенью 1941-го года немецкие части, стоявшие возле Волоколамска, отделяло от Москвы каких-нибудь два часа по шоссе. Однако, на этом шоссе стояла 316-я стрелковая дивизия под командованием генерала И. В. Панфилова. Этот военачальник обладал настолько высоким авторитетом среди личного состава, что бойцы дивизии сами называли себя панфиловцами. А дивизию - панфиловской.
AppleStoreCatalogID : 1182166656
Vendor : Apple:vendor_id:2016-764465
ContentRating : ru-movie|12+|200|

Video #1
ID : 1
Format : AVC
Format/Info : Advanced Video Codec
Format profile : High@L3.1
Format settings, CABAC : Yes
Format settings, ReFrames : 9 frames
Codec ID : avc1
Codec ID/Info : Advanced Video Coding
Duration : 2h 0mn
Source duration : 2h 0mn
Bit rate : 2 200 Kbps
Width : 1 024 pixels
Height : 432 pixels
Display aspect ratio : 2.40:1
Frame rate mode : Variable
Frame rate : 23.976 fps
Minimum frame rate : 23.810 fps
Maximum frame rate : 24.318 fps
Color space : YUV
Chroma subsampling : 4:2:0
Bit depth : 8 bits
Scan type : Progressive
Bits/(Pixel*Frame) : 0.207
Stream size : 1.85 GiB (94%)
Source stream size : 1.85 GiB (94%)
Title : Main Program
Writing library : x264 core 142 r2479 dd79a61
Encoding settings : cabac=1 / ref=9 / deblock=1:0:0 / analyse=0x3:0x113 / me=umh / subme=9 / psy=1 / psy_rd=1.00:0.00 / mixed_ref=1 / me_range=32 / chroma_me=1 / trellis=1 / 8x8dct=1 / cqm=0 / deadzone=21,11 / fast_pskip=1 / chroma_qp_offset=-2 / threads=36 / lookahead_threads=3 / sliced_threads=0 / nr=0 / decimate=1 / interlaced=0 / bluray_compat=0 / constrained_intra=0 / bframes=6 / b_pyramid=2 / b_adapt=2 / b_bias=0 / direct=1 / weightb=1 / open_gop=0 / weightp=2 / keyint=240 / keyint_min=24 / scenecut=40 / intra_refresh=0 / rc_lookahead=40 / rc=2pass / mbtree=1 / bitrate=2200 / ratetol=1.0 / qcomp=0.60 / qpmin=0 / qpmax=69 / qpstep=4 / cplxblur=20.0 / qblur=0.5 / ip_ratio=1.40 / aq=1:1.00
Language : Russian
Encoded date : UTC 2016-12-27 11:13:48
Tagged date : UTC 2016-12-27 11:13:53
Color range : Limited
Color primaries : BT.709
Transfer characteristics : BT.709
Matrix coefficients : BT.709

Video #2
ID : 4
Format : JPEG
Codec ID : jpeg
Duration : 2h 0mn
Bit rate mode : Variable
Bit rate : 576 bps
Width : 640 pixels
Height : 270 pixels
Display aspect ratio : 2.40:1
Frame rate mode : Variable
Frame rate : 0.002 fps
Minimum frame rate : 0.001 fps
Maximum frame rate : 0.003 fps
Color space : YUV
Chroma subsampling : 4:2:0
Bit depth : 8 bits
Compression mode : Lossy
Bits/(Pixel*Frame) : 1.667
Stream size : 527 KiB (0%)
Title : Chapter Images
Language : Russian
Encoded date : UTC 2016-12-27 11:13:59
Tagged date : UTC 2016-12-27 11:13:59

Audio
ID : 2
Format : AAC
Format/Info : Advanced Audio Codec
Format profile : LC
Codec ID : 40
Duration : 2h 0mn
Bit rate mode : Variable
Bit rate : 126 Kbps
Maximum bit rate : 189 Kbps
Channel(s) : 2 channels
Channel positions : Front: L R
Sampling rate : 48.0 KHz
Compression mode : Lossy
Stream size : 109 MiB (5%)
Title : Russian Stereo
Language : Russian
Encoded date : UTC 2016-12-27 11:13:48
Tagged date : UTC 2016-12-27 11:13:56

Menu #1
00:00:00.000 : 1
00:06:28.666 : 2
00:13:30.207 : 3
00:20:32.207 : 4
00:27:03.957 : 5
00:33:34.290 : 6
00:40:40.415 : 7
00:48:05.248 : 8
00:55:16.373 : 9
01:02:22.998 : 10
01:10:09.039 : 11
01:18:04.164 : 12
01:25:17.997 : 13
01:32:36.997 : 14
01:40:55.830 : 15

Menu #2
ID : 3
Codec ID : text
Duration : 2h 0mn
Language : Russian
Encoded date : UTC 2016-12-27 11:13:56
Tagged date : UTC 2016-12-27 11:13:56
00:00:00.000 : 1
00:06:28.666 : 2
00:13:30.207 : 3
00:20:32.207 : 4
00:27:03.957 : 5
00:33:34.290 : 6
00:40:40.415 : 7
00:48:05.248 : 8
00:55:16.373 : 9
01:02:22.998 : 10
01:10:09.039 : 11
01:18:04.164 : 12
01:25:17.997 : 13
01:32:36.997 : 14
01:40:55.830 : 15
Bit rate mode : VBR
x264 [info]: frame I:1859 Avg QP:13.74 size: 74922
x264 [info]: frame P:38581 Avg QP:16.44 size: 22900
x264 [info]: frame B:112060 Avg QP:18.82 size: 6479
x264 [info]: consecutive B-frames: 2.6% 4.3% 6.2% 58.9% 12.0% 12.6% 3.4%
x264 [info]: mb I I16..4: 8.6% 66.6% 24.8%
x264 [info]: mb P I16..4: 1.8% 8.3% 2.2% P16..4: 34.0% 29.6% 17.7% 0.0% 0.0% skip: 6.4%
x264 [info]: mb B I16..4: 0.2% 0.9% 0.3% B16..8: 38.6% 11.9% 3.5% direct: 5.2% skip:39.4% L0:40.0% L1:46.7% BI:13.3%
x264 [info]: 8x8 transform intra:66.6% inter:61.8%
x264 [info]: coded y,uvDC,uvAC intra: 86.4% 89.5% 72.8% inter: 29.0% 20.0% 3.8%
x264 [info]: i16 v,h,dc,p: 56% 13% 6% 24%
x264 [info]: i8 v,h,dc,ddl,ddr,vr,hd,vl,hu: 12% 10% 6% 9% 13% 13% 13% 12% 13%
x264 [info]: i4 v,h,dc,ddl,ddr,vr,hd,vl,hu: 12% 11% 3% 8% 14% 14% 14% 12% 13%
x264 [info]: i8c dc,h,v,p: 42% 23% 20% 16%
x264 [info]: Weighted P-Frames: Y:1.8% UV:1.0%
x264 [info]: ref P L0: 54.4% 11.1% 17.2% 5.3% 4.3% 2.6% 2.4% 1.2% 1.3% 0.1% 0.0%
x264 [info]: ref B L0: 79.0% 10.5% 4.6% 2.1% 1.6% 1.3% 0.7% 0.3%
x264 [info]: ref B L1: 94.8% 5.2%
x264 [info]: kb/s:2198.88


Технические данные файла:
ㅤ♦ Качество: WEB-DLRip (Исходник: WEB-DL 1080p)
ㅤ♦ Формат: M4V
ㅤ♦ Тип: SD (576p)
ㅤ♦ Видео кодек: H.264
ㅤ♦ Аудио кодек: AAC-LC,
ㅤ♦ Видео: 1024x432, 2.40:1, 2 200 Kbps, 23.976 fps (0.207 bit/pixel)
ㅤ♦ Аудио #1: AAC / 2.0 / 128 Kbps / 48.0 KHz | Русский/Дублированный (iTunes)
ㅤ♦ Аудио #2: AAC / 2.0 / 128 Kbps / 48.0 KHz | Английский/Оригинальная дорожка
ㅤ♦ Аудио #3: AAC / 2.0 / 128 Kbps / 48.0 KHz | Украинский/Дублированный (iTunes)
Скачать Шпионы по соседству / Keeping Up with the Joneses (2016) WEB-DLRip | iPad бесплатно в торренте!
Скачать .torrent (39.0Kb)
Торрент:
Зарегистрирован
Статус:
v проверено
.torrent скачан:
11 раз
Размер:
1.91 GB
Скачать Шпионы по соседству / Keeping Up with the Joneses (2016) WEB-DLRip | iPad.torrent
Всего комментариев к торренту: 0
Имя *:
Email:
Подписка:1
Код *:
Игровой торрент-трекер
Рейтинг@Mail.ru

Администрация не несет ответственности за предоставленные на сайте материалы. Весь архив предоставлен только в ознакомительных целях.

Любой торрент файл будет удален по требованию правообладателя. Хостинг от uCoz | Карта сайта